#TITLE:Love Story;
#SUBTITLE:;
#ARTIST:Katharine McPhee;
#TITLETRANSLIT:Love Story;
#SUBTITLETRANSLIT:;
#ARTISTTRANSLIT:Katharine McPhee;
#CREDIT:;
#BANNER:Love Story-bn.png;
#BACKGROUND:Love Story-bg.png;
#LYRICSPATH:;
#CDTITLE:pm4cd.png;
#MUSIC:Love Story.mp3;
#OFFSET:0.040;
#SAMPLESTART:36.480;
#SAMPLELENGTH:20.000;
#SELECTABLE:YES;
#BPMS:0.000=111.160;
#STOPS:;
#BGCHANGES:;
// cache tags:
#FIRSTBEAT:0.750;
#LASTBEAT:335.750;
#SONGFILENAME:Songs/Music V.I.P ^_^/Love Story/Love Story.sm;
#HASMUSIC:1;
#HASBANNER:1;
#MUSICLENGTH:184.123;
// end cache tags

//---------------dance-single - ----------------
#NOTES:
     dance-single:
     :
     Hard:
     10:
     1.000,1.000,1.000,0.815,1.000,716.000,406.000,150.000,0.000,327.000:
0000
0000
0000
0110
0000
1010
0100
0011
0000
0110
0000
0101
0010
1100
0000
0110
,
1000
0101
0010
1102
0000
0010
0000
1000
0000
0110
0000
0000
0000
1013
0000
0101
,
0010
1100
0000
0211
0000
1000
0000
0001
0000
1010
0000
0000
0000
0311
0000
1001
,
0100
1010
0000
2110
0000
0020
0000
0100
0000
0131
0000
0000
0000
3011
0000
1100
,
0010
0101
0000
1021
0000
0100
0000
0001
0000
1100
0000
0000
0000
0131
0000
1000
,
0000
0020
0000
1231
0000
0001
0000
0010
0000
1001
0000
0000
0000
0311
0000
1001
,
0010
1100
0000
0112
0000
1000
0000
0010
0000
1100
0000
0000
0000
1013
0000
0101
,
0010
1001
0000
2110
0000
0001
0000
0100
0000
0011
0000
0000
0000
3101
0000
1100
,
0010
1001
0100
1021
0000
0100
0000
0001
0000
1100
0000
0000
0000
0131
0000
1000
,
0000
0002
0000
1113
0000
0000
0100
1001
0100
1010
0001
0010
0100
1010
0001
2200
,
0000
0000
0000
3311
0000
0000
0000
1000
0100
1001
0100
1000
0100
0011
0100
2020
,
0000
0000
0000
3131
0000
0000
0010
0101
0010
1001
0010
0100
1000
0101
1000
0220
,
0000
0000
0000
1331
0000
0000
0100
0011
0100
1001
0100
0010
0100
1010
0100
0022
,
0000
0000
0003
1131
0000
0010
0000
1100
0000
0011
0000
0100
0000
0011
0000
1100
,
0000
0010
0000
0111
0000
1000
0000
0101
0000
1010
0000
0100
0000
1010
0000
0101
,
0000
1000
0000
1110
0000
0001
0000
0110
0000
1001
0000
0100
0000
1001
0000
0110
,
0000
0010
0001
1110
0000
0001
0000
1100
0000
0101
0000
0010
0000
0101
0000
1100
,
0000
0100
0000
2201
0000
0000
0000
0001
0000
0011
0000
0000
0000
0010
0000
0011
,
0000
0000
0000
3322
0000
0000
0000
0100
0000
1100
0000
0000
0000
1000
0000
1133
,
0000
0001
0000
1220
0000
0000
0000
0001
0000
1001
0000
0000
0000
1000
0000
1331
,
0000
0010
0000
1202
0000
0000
0000
1000
0000
1010
0000
0000
0000
0010
0000
1313
,
0000
0100
0000
2112
0000
0000
0000
0010
0000
0110
0000
0000
0000
0100
0000
3113
,
0000
0001
0000
0212
0000
0000
0000
1000
0000
1010
0000
0000
0000
0010
0000
1313
,
0000
0000
0100
1011
0100
1000
0100
1010
0001
1010
0100
1000
0100
1010
0100
1010
,
0000
0000
0010
1101
0010
0100
0010
1001
0010
1100
0010
0100
1000
0101
0010
1200
,
0020
0000
2002
0300
0030
0003
3121
0000
0000
0000
1000
0000
0000
0000
0100
0000
0000
0000
1001
0000
0000
0000
0000
0000
0000
0000
0131
0000
0000
0000
0011
0000
,
0100
1010
0000
2110
0000
0001
0000
0010
0000
0101
0000
0000
0000
3011
0000
0110
,
1000
0101
0000
1120
0000
0001
0000
1000
0000
0101
0000
0000
0000
1130
0000
1001
,
0010
0101
0000
1201
0000
0010
0000
0001
0000
1010
0000
0000
0000
0311
0000
0010
,
0000
0200
0000
1311
0000
0000
0100
1010
0100
0011
0100
1000
0100
1010
0001
0210
,
0000
0001
0000
1311
0000
0000
0000
0110
0001
1010
0100
0010
0100
1001
0100
0022
,
0000
0000
0230
0000
0000
0300
1113
0000
0000
0000
0000
0000
0000
0000
1001
0000
0100
0000
1010
0000
0100
0000
0010
0000
0001
0000
1010
0000
0100
0000
2001
0000
,
0000
0001
0100
3011
0000
0000
0000
0110
1000
0101
0010
0001
0010
1001
0100
2020
,
0000
3001
0000
2131
0000
0000
0000
0011
0000
0101
0000
0000
0000
0101
0000
0110
,
0000
0001
0000
3211
0000
0000
0000
0011
0000
1001
0000
0000
0000
2002
3000
1013
,
0000
0001
0000
1321
0000
0000
0000
0101
0000
1100
0000
0000
0000
2200
3000
2302
,
0000
3100
0003
2232
0000
0000
3300
1100
0000
0110
0000
0000
0000
0110
0000
1010
,
0000
0100
0000
2213
0000
0000
0000
0011
0000
0011
0000
0000
0000
0011
0000
0011
,
3300
1000
0000
0221
0000
0000
0000
1001
0000
1001
0000
0000
0000
1001
0000
1331
,
0000
0100
0000
1022
0000
0000
0000
1100
0000
1100
0000
0000
0000
1100
0000
1100
,
0033
0010
0001
2120
0000
0000
0000
0101
0000
0101
0000
0000
0000
0101
0000
0101
,
3030
0100
0000
1202
0000
0000
0000
1010
0000
1010
0000
0000
0000
1010
0000
1010
,
0303
0010
0000
2102
0000
0000
0000
0110
0000
0110
0000
0000
0000
0110
0000
0110
,
3003
0000
0001
1110
0001
0010
0100
1010
0001
1010
0100
1000
0100
0011
0100
1010
,
0000
0000
0010
2202
3313
0100
1000
0222
1333
0100
0010
2202
3313
0100
1000
0222
,
1333
0101
1000
0111
0000
2001
0000
0110
0000
0101
0000
0001
0000
0011
0000
0101
,
0000
3010
0000
0102
0000
0010
0000
1100
0000
1010
0000
1000
0000
0110
0000
1013
,
0000
0100
0000
0120
0000
1000
0000
0101
0000
1001
0000
0001
0000
1100
0000
1031
,
0000
0100
0000
1200
0000
0010
0000
0011
0000
1010
0000
0001
0000
1001
0000
0311
,
0000
1000
0000
0012
0000
1000
0000
0110
0000
1100
0000
0010
0000
1100
0000
0113
,
0000
0001
0000
2010
0000
0001
0000
0101
0000
0011
0000
0001
0000
0110
0000
3101
,
0000
0010
0000
0120
0000
0001
0000
0101
0000
1001
0000
1000
0000
0101
0000
1031
,
0000
0100
0000
0201
0000
0010
0010
1001
0000
0011
1000
1000
1000
0011
0000
1310
,
0011
0110
1100
0112
0000
1000
0000
0110
0000
1010
0000
0100
0000
0110
0000
1103
,
0000
0010
0000
2101
0000
0010
0000
0110
0000
0101
0000
0001
0000
0011
0000
3110
,
0000
0100
0000
1021
0000
0100
0000
0101
0000
1001
0000
0001
0000
1100
0000
1031
,
0000
0100
0000
1201
0000
0001
0000
0011
0000
1001
0000
0010
0000
1010
0000
0311
,
0000
0010
0000
2110
0000
0001
0000
0110
0000
0011
0000
0100
0000
0110
0000
3101
,
0000
0010
0000
0112
0000
1000
0000
1100
0000
1010
0000
0100
0000
1010
0000
0113
,
0000
0010
0000
2101
0000
0001
0000
0110
0000
0011
0000
0100
0000
0011
0000
3101
,
0000
0100
0000
2021
0000
0200
3000
0002
0300
2000
0003
0200
3000
2000
0300
0202
,
0300
0000
0000
0000
0000
0000
0000
0000
0000
0000
0000
0000
0200
0000
0000
0000
0000
0000
0030
0000
0000
0000
0000
0000
0003
0000
0000
0000
0000
0000
0000
0000
0300
0000
0000
0000
3112
0000
0000
0000
0000
0000
0000
0000
0000
0000
0000
0000
0000
0000
0000
0000
0000
0000
0000
0000
0000
0000
0000
0000
1000
0000
0000
0000
0000
0000
0000
0000
0000
0000
0000
0000
0000
0000
0000
0000
0000
0000
0000
0000
0000
0000
0000
0000
0110
0000
0000
0000
0000
0000
0000
0000
0000
0000
0000
0000
0000
0000
0000
0000
0000
0000
0000
0000
0000
0000
0000
0000
1100
0000
0000
0000
0000
0000
0000
0000
0000
0000
0000
0000
0000
0000
0000
0000
0000
0000
0000
0000
0000
0000
0000
0000
0010
0000
0000
0000
0000
0000
0000
0000
0000
0000
0000
0000
0000
0000
0000
0000
0000
0000
0000
0000
0000
0000
0000
0000
1100
0000
0000
0000
0000
0000
0000
0000
0000
0000
0000
0000
0000
0000
0000
0000
0000
0000
0000
0000
0000
0000
0000
0000
0113
0000
0000
0000
0000
0000
0000
0000
0000
0000
0000
0000
,
0000
0001
0000
2110
0000
0001
0000
0011
0000
0101
0000
0100
0000
0101
0000
3011
,
0000
0100
0000
1201
0000
0010
0000
0011
0000
1001
0000
1000
0000
1001
0000
1310
,
0000
1000
0100
1021
0000
0100
0000
1100
0000
0101
0000
0200
0000
2002
3300
2230
,
0003
3001
0300
1102
0000
0010
0000
1010
0000
0110
0000
1000
0000
0110
0000
1013
,
0000
1000
0000
2101
0000
0010
0000
0110
0000
0101
0000
0010
0000
0110
0000
3011
,
0000
0000
1000
0112
1000
0100
0010
0110
1000
1100
0010
0100
1000
0110
0010
1103
,
0000
0000
0001
2110
0001
0010
0100
0011
0001
0110
0100
0010
0001
0110
0100
3022
,
0200
0000
0030
0320
0000
0000
0203
0000
0030
1312
0000
0000
0000
0000
0000
0100
0000
0000
0000
0000
0000
1100
0000
0000
0000
0000
0000
1110
0000
0000
0000
0000
0000
1000
0000
0000
0000
0000
0000
0110
0000
0000
0000
0000
0000
1113
0000
0000
,
0000
0100
0000
1021
0000
0100
0000
1001
0000
1101
0000
1000
0000
0101
0000
1131
,
0000
1000
0000
1201
0000
0010
0000
0011
0000
1011
0000
1000
0000
1001
0000
1311
,
0000
0001
0010
2101
0000
0010
0000
0101
0000
0111
0000
0001
0000
0110
0000
3111
,
0000
1000
0000
1021
0000
0100
0000
1101
0000
0101
0000
1000
0000
0101
0000
1131
,
0000
0010
0000
0112
0000
1000
0000
1110
0000
1010
0000
0100
0000
1010
0000
1113
,
0000
0000
0100
1011
0000
0100
0010
1001
0010
0101
0010
0100
1000
0101
0010
1101
,
0000
0000
0010
1101
0000
0001
0010
1001
0010
0101
1000
0100
0010
0101
0010
2200
,
0000
0000
0000
0000
0000
0300
3122
0000
0000
0000
0100
0000
0000
0000
1000
0000
0000
0000
1100
0000
0000
0000
0000
0000
0000
0000
1133
0000
0000
0000
0011
0000
,
0110
1100
0000
2201
0000
0010
0000
0001
0000
0011
0000
0000
0000
3311
0000
1100
,
0110
0011
0000
1102
0000
0210
0000
1000
0000
1010
0000
0000
0000
1313
0000
1001
,
0101
0011
0100
0221
0000
1000
0000
0001
0000
1001
0000
0000
0000
1331
0000
0000
,
0000
0000
0000
0000
2002
0000
0000
0000
0000
0000
0000
3003
2112
0000
0000
0000
0000
0000
0000
0000
0100
0000
0000
0000
0000
0000
0000
0000
0010
0000
0000
0000
0000
0000
0000
0000
0110
0000
0000
0000
0000
0000
0000
0000
0000
0000
0000
0000
0000
0000
0000
0000
3113
0000
0000
0000
0000
0000
0000
0000
1001
0000
0000
0000
,
1010
1100
0000
2021
0000
0001
0000
0100
0000
0101
0000
0000
0000
3131
0000
0101
,
0110
2020
0000
0000
0000
0000
0000
0000
0000
0000
0000
0000
0000
0000
0000
3030
;

//---------------dance-single - ----------------
#NOTES:
     dance-single:
     :
     Easy:
     1:
     0.000,0.000,0.000,0.000,0.000,0.000,0.000,0.000,0.000,0.000:
0000
0000
0000
0000
;

//---------------dance-single - Copied from----------------
#NOTES:
     dance-single:
     Copied from:
     Medium:
     1:
     0.000,0.000,0.000,0.000,0.000,0.000,0.000,0.000,0.000,0.000:
0000
0000
0000
0000
;
